You are here: Home » Reply

Reply To: ogg transcoding problem

#5455

dontodd
Participant

I tried the perl script instead of the bash one and it gave an error about WAV headers, so I thought I had already installed ffmpeg but apparently not.

It also appears that Rhythmbox is not working properly; when I try to play an ogg in it, no joy, but Banshee is able to play oggs and flacs.

I just wanted to test the transcoding before I shelled out the cash for a SoundBridge, and I think it’ll work now.

Session 2: Streaming file ’01 – Don’t Want You No More.ogg’ to 192.168.0.200 (offset 0)
Executing /usr/local/bin/mt-daapd-ssc.pl “/mnt/mymedia/lossy/abb/01 – Don’t Want You No More.ogg” 0 145.000 “ogg”
ffmpeg version CVS, build 3276800, Copyright (c) 2000-2004 Fabrice Bellard
configuration: –extra-cflags=-fomit-frame-pointer -DRUNTIME_CPUDETECT –build i486-linux-gnu –enable-gpl –enable-pp –enable-zlib –enable-vorbis –enable-libogg –enable-theora –enable-a52 –enable-dts –enable-dc1394 –enable-libgsm –disable-debug –prefix=/usr
built on Nov 24 2005 10:19:02, gcc: 4.0.3 20051121 (prerelease) (Ubuntu 4.0.2-4ubuntu3)
Input #0, ogg, from ‘/mnt/mymedia/lossy/abb/01 – Don’t Want You No More.ogg’:
Duration: 00:02:25.6, start: 0.000000, bitrate: 118 kb/s
Stream #0.0: Audio: vorbis, 44100 Hz, stereo, 112 kb/s
Output #0, wav, to ‘pipe:’:
Stream #0.0: Audio: pcm_s16le, 44100 Hz, stereo, 1411 kb/s
Stream mapping:
Stream #0.0 -> #0.0
Press [q] to stop encoding
size= 25094kB time=145.7 bitrate=1411.2kbits/s
video:0kB audio:25094kB global headers:0kB muxing overhead 0.000171%