You are here: Home » Reply

Reply To: [SOLVED] Some FLAC don’t play in Rhythmbox via DAAP

#18584

Anonymous

Thanks! It makes sense now πŸ˜€

However, there is output of problematic file:

1 - Intro.flac: FLAC audio bitstream data, 16 bit, stereo, 44.1 kHz, 2299080 samples

It seems it’s normal FLAC. In Rhythmbox it shows red sign and skips it immediately. Maybe initial encoding was wrong?

Exact Audio Copy V0.99 prebeta 4 from 23. January 2008

EAC extraction logfile from 19. November 2008, 21:53

Nirvana / From The Muddy Banks Of The Wishkah

Used drive : PIONEER DVD-RW DVR-112D Adapter: 3 ID: 0

Read mode : Fast

Read offset correction : 48
Overread into Lead-In and Lead-Out : No
Fill up missing offset samples with silence : Yes
Delete leading and trailing silent blocks : No
Null samples used in CRC calculations : Yes
Used interface : Installed external ASPI interface
Gap handling : Appended to previous track

Used output format : User Defined Encoder
Selected bitrate : 896 kBit/s
Quality : High
Add ID3 tag : Yes
Command line compressor : C:Program FilesExact Audio CopyFLACFLAC.EXE
Additional command line options : -8 -V -T "ARTIST=%a" -T "TITLE=%t" -T "ALBUM=%g" -T "DATE=%y" -T "TRACKNUMBER=%n" -T "GENRE=%m" -T "COMMENT=%e" %s -o %d


TOC of the extracted CD

Track | Start | Length | Start sector | End sector
1 | 0:00.00 | 0:52.10 | 0 | 3909
2 | 0:52.10 | 2:40.17 | 3910 | 15926
3 | 3:32.27 | 3:34.68 | 15927 | 32044
4 | 7:07.20 | 4:31.50 | 32045 | 52419
5 | 11:38.70 | 4:47.02 | 52420 | 73946
6 | 16:25.72 | 2:07.23 | 73947 | 83494
7 | 18:33.20 | 4:10.07 | 83495 | 102251
8 | 22:43.27 | 1:55.73 | 102252 | 110949
9 | 24:39.25 | 3:10.35 | 110950 | 125234
10 | 27:49.60 | 3:31.07 | 125235 | 141066
11 | 31:20.67 | 4:41.48 | 141067 | 162189
12 | 36:02.40 | 3:45.47 | 162190 | 179111
13 | 39:48.12 | 2:43.48 | 179112 | 191384
14 | 42:31.60 | 2:30.05 | 191385 | 202639
15 | 45:01.65 | 3:28.20 | 202640 | 218259
16 | 48:30.10 | 1:55.27 | 218260 | 226911
17 | 50:25.37 | 3:36.18 | 226912 | 243129


Track 1

Filename C:Documents and SettingssradamsMy DocumentsDownloadsNirvanaFrom The Muddy Banks Of The WishkahNirvana - From The Muddy Banks Of The Wishkah - 01 - Intro.wav

Pre-gap length 0:00:02.00

Peak level 97.9 %
Test CRC AE7AE5FF
Copy CRC AE7AE5FF
Accurately ripped (confidence 9) [1AA69DB0]
Copy OK

Track 2

Filename C:Documents and SettingssradamsMy DocumentsDownloadsNirvanaFrom The Muddy Banks Of The WishkahNirvana - From The Muddy Banks Of The Wishkah - 02 - School.wav

Pre-gap length 0:00:01.85

Peak level 97.8 %
Test CRC 68AD49FA
Copy CRC 68AD49FA
Accurately ripped (confidence 9) [1EB4737E]
Copy OK

Track 3

Filename C:Documents and SettingssradamsMy DocumentsDownloadsNirvanaFrom The Muddy Banks Of The WishkahNirvana - From The Muddy Banks Of The Wishkah - 03 - Drain You.wav

Pre-gap length 0:00:07.77

Peak level 97.8 %
Test CRC 6004E636
Copy CRC 6004E636
Accurately ripped (confidence 9) [68A296E1]
Copy OK

Track 4

Filename C:Documents and SettingssradamsMy DocumentsDownloadsNirvanaFrom The Muddy Banks Of The WishkahNirvana - From The Muddy Banks Of The Wishkah - 04 - Aneurysm.wav

Pre-gap length 0:00:01.90

Peak level 97.8 %
Test CRC 073AF7B8
Copy CRC 073AF7B8
Accurately ripped (confidence 9) [E2B7B5FB]
Copy OK

Track 5

Filename C:Documents and SettingssradamsMy DocumentsDownloadsNirvanaFrom The Muddy Banks Of The WishkahNirvana - From The Muddy Banks Of The Wishkah - 05 - Smells Like Teen Spirit.wav

Pre-gap length 0:00:04.46

Peak level 97.8 %
Test CRC 39ACBEAB
Copy CRC 39ACBEAB
Accurately ripped (confidence 9) [93D87208]
Copy OK

Track 6

Filename C:Documents and SettingssradamsMy DocumentsDownloadsNirvanaFrom The Muddy Banks Of The WishkahNirvana - From The Muddy Banks Of The Wishkah - 06 - Been A Son.wav

Pre-gap length 0:00:08.34

Peak level 98.8 %
Test CRC CAF14D27
Copy CRC CAF14D27
Accurately ripped (confidence 9) [7ECBC25B]
Copy OK

Track 7

Filename C:Documents and SettingssradamsMy DocumentsDownloadsNirvanaFrom The Muddy Banks Of The WishkahNirvana - From The Muddy Banks Of The Wishkah - 07 - Lithium.wav

Pre-gap length 0:00:01.80

Peak level 97.9 %
Test CRC 0BED5905
Copy CRC 0BED5905
Accurately ripped (confidence 9) [E4F8AC93]
Copy OK

Track 8

Filename C:Documents and SettingssradamsMy DocumentsDownloadsNirvanaFrom The Muddy Banks Of The WishkahNirvana - From The Muddy Banks Of The Wishkah - 08 - Sliver.wav

Pre-gap length 0:00:04.53

Peak level 99.4 %
Test CRC 61897C45
Copy CRC 61897C45
Accurately ripped (confidence 9) [875EAE7B]
Copy OK

Track 9

Filename C:Documents and SettingssradamsMy DocumentsDownloadsNirvanaFrom The Muddy Banks Of The WishkahNirvana - From The Muddy Banks Of The Wishkah - 09 - Spank Thru.wav

Pre-gap length 0:00:01.84

Peak level 98.1 %
Test CRC 3E1A14F5
Copy CRC 3E1A14F5
Accurately ripped (confidence 9) [ED8AE1B3]
Copy OK

Track 10

Filename C:Documents and SettingssradamsMy DocumentsDownloadsNirvanaFrom The Muddy Banks Of The WishkahNirvana - From The Muddy Banks Of The Wishkah - 10 - Scentless Apprentice.wav

Pre-gap length 0:00:04.93

Peak level 98.9 %
Test CRC 43E1B1B2
Copy CRC 43E1B1B2
Accurately ripped (confidence 9) [8337DD4F]
Copy OK

Track 11

Filename C:Documents and SettingssradamsMy DocumentsDownloadsNirvanaFrom The Muddy Banks Of The WishkahNirvana - From The Muddy Banks Of The Wishkah - 11 - Heart-Shaped Box.wav

Pre-gap length 0:00:07.36

Peak level 99.4 %
Test CRC 4212886E
Copy CRC 4212886E
Accurately ripped (confidence 9) [B913DA67]
Copy OK

Track 12

Filename C:Documents and SettingssradamsMy DocumentsDownloadsNirvanaFrom The Muddy Banks Of The WishkahNirvana - From The Muddy Banks Of The Wishkah - 12 - Milk It.wav

Pre-gap length 0:00:01.78

Peak level 97.8 %
Test CRC 6F077FDD
Copy CRC 6F077FDD
Accurately ripped (confidence 9) [9CF8E154]
Copy OK

Track 13

Filename C:Documents and SettingssradamsMy DocumentsDownloadsNirvanaFrom The Muddy Banks Of The WishkahNirvana - From The Muddy Banks Of The Wishkah - 13 - Negative Creep.wav

Pre-gap length 0:00:07.42

Peak level 100.0 %
Test CRC 3F231B1A
Copy CRC 3F231B1A
Accurately ripped (confidence 9) [01BB232C]
Copy OK

Track 14

Filename C:Documents and SettingssradamsMy DocumentsDownloadsNirvanaFrom The Muddy Banks Of The WishkahNirvana - From The Muddy Banks Of The Wishkah - 14 - Polly.wav

Pre-gap length 0:00:00.69

Peak level 98.8 %
Test CRC F22DD0F4
Copy CRC F22DD0F4
Accurately ripped (confidence 9) [573B00DC]
Copy OK

Track 15

Filename C:Documents and SettingssradamsMy DocumentsDownloadsNirvanaFrom The Muddy Banks Of The WishkahNirvana - From The Muddy Banks Of The Wishkah - 15 - Breed.wav

Pre-gap length 0:00:04.77

Peak level 97.9 %
Test CRC A0EDD63A
Copy CRC A0EDD63A
Accurately ripped (confidence 9) [8A23EAB3]
Copy OK

Track 16

Filename C:Documents and SettingssradamsMy DocumentsDownloadsNirvanaFrom The Muddy Banks Of The WishkahNirvana - From The Muddy Banks Of The Wishkah - 16 - Tourette's.wav

Pre-gap length 0:00:17.76

Peak level 97.9 %
Test CRC 370DDCF9
Copy CRC 04EA4A8F
Cannot be verified as accurate (confidence 6) [0BA111F0], AccurateRip returned [E20D5195]
Copy OK

Track 17

Filename C:Documents and SettingssradamsMy DocumentsDownloadsNirvanaFrom The Muddy Banks Of The WishkahNirvana - From The Muddy Banks Of The Wishkah - 17 - Blew.wav

Pre-gap length 0:00:01.76

Peak level 99.4 %
Test CRC DA8BCBD3
Copy CRC DA8BCBD3
Accurately ripped (confidence 7) [0B891B96]
Copy OK


16 track(s) accurately ripped
1 track(s) could not be verified as accurate

Some tracks could not be verified as accurate

No errors occurred

End of status report

I’ve got problems with every song in this album πŸ™