You are here: Home » Reply

Reply To: Won’t transcode movie

#14934

Anonymous

@rpedde wrote:

Try updating the file in the db so that has_video is 1.

Tried that, didn’t work. Can’t even get ffmpeg to include the video if I run it manually in the shell

[celia.pts/5]$ ffmpeg -y -i "/share/Movies/tmp/Filename (avi-avi).avi" -f wav /tmp/y
FFmpeg version SVN-r11114, Copyright (c) 2000-2007 Fabrice Bellard, et al.
configuration: --enable-gpl --enable-pp --enable-pthreads --enable-libvorbis --enable-liba52 --enable-libgsm --enable-libfaac --enable-libfaad --enable-libmp3lame --enable-libx264 --enable-libxvid --enable-libdc1394 --disable-debug --enable-shared --prefix=/usr
libavutil version: 49.5.0
libavcodec version: 51.48.0
libavformat version: 52.1.0
built on Nov 30 2007 22:29:07, gcc: 4.1.2 20061115 (prerelease) (Debian 4.1.1-21)
Input #0, avi, from '/share/Movies/tmp/Filename (avi-avi).avi':
Duration: 01:43:19.4, start: 0.000000, bitrate: 946 kb/s
Stream #0.0: Video: mpeg4, yuv420p, 640x240 [PAR 1:1 DAR 8:3], 25.00 tb(r)
Stream #0.1: Audio: mp3, 48000 Hz, stereo, 112 kb/s
Output #0, wav, to '/tmp/y':
Stream #0.0: Audio: pcm_s16le, 48000 Hz, stereo, 1536 kb/s
Stream mapping:
Stream #0.1 -> #0.0
Press [q] to stop encoding

This is latest SVN version of ffmpeg built this weekend.

I’ve also tried to transcode it to MOV and ASF (with following params: ‘-vcodec msmpeg4 -acodec libmp3lame’). But in both cases, iTunes ‘hangs up’ for some reason (because it doesn’t understand the format?).

I’m starting to wonder if it’s something wrong with my ffmpeg installation. I’ve been fiddeling with this all weekend, hacking the script and ssc-ffmpeg.so etc, but I just can’t get it to include the video. I’ve asked on the ffmpeg list, but so far no answer.